Explore releases from Klub des Loosers at Discogs. Au total plus de 29 million de journées de travail ont été perdues. merde Fuzzati... le cafard assuré... permalink; save; context; full comments (4) give award; AJA : Depuis 1947, la SNCF n'a pas connu une seule année sans jour de grêve. Autour d'un café.wav" WAVE TRACK 05 AUDIO TITLE "Autour d'un café" PERFORMER "Klub des Loosers" REM COMPOSER "" INDEX 01 00:00:00 FILE "06. klub des loosers la femme de fer record makers - France - … 3:31 PREVIEW Tremblor of Void. Forgot account? Always wearing a mask, he is known for his sad, cynical lyrics. The last track sounds like Melody Nelson / Serge Gainsbourg. Country: France Released: Nov … Check out Les statues by Klub des Loosers on Amazon Music. Klub des Loosers est un groupe de hip-hop français. Stream and download in Hi-Res on Qobuz.com Vanité - Magazine Klub des Loosers Magazine ... En raison de la situation sanitaire actuelle, les services de transports nationaux et internationaux peuvent être affectés dans leur logistique; par conséquent les délais de livraison annoncés sur le site ne peuvent être garantis à 100% en fonction de la destination. He was co-founder in 2000 of Klub des Loosers. Car oui, je me retrouve à chroniquer un disque du Klub des Loosers en vitesse juste pour pouvoir le mettre dans les tops de fin d'années. Klub des Loosers Les statues Lyrics. The song is a medium length song having a playtime of 3 minutes and 31 seconds. All setlist songs (19) Years on tour. Ok, for the auld alliance, for the sake o’ auld land syne, one last entry from “Fabriqué en France; 130 Chansons”, a great soundtrack to a 10 hour working day if ever I heard one ; – ) • “Baise Les Gens” set to a picture of the housing album cover. Baise les gens, an EP by Klub des Loosers. Price : Format : 12 inch 33 rpm Cover condition : NA Media condition : NA 12 inch 33 rpm NA/NA GEMINICRICKET (France) Seller : GEMINICRICKET Shipped from : France. Sign up for Deezer for free and listen to Klub des Loosers: discography, top tracks and playlists. www.klubdesloosers.com. 32,373 people follow this. All. Klub des Loosers > Tour Statistics. Selected popular Klub Des Loosers song of Thursday, March 25 2021 is "Baise Les Gens". Stream Avec les larmes by Klub des loosers from desktop or your mobile device Released in January 2003 on Record Makers (catalog no. of Montreal. We Won't Lose You - Team Ghost 15. The Rodeo. But who's this mysterious french singer ? 2:40 PREVIEW Nora (Naked) Orouni. Ne plus y croire.wav" WAVE TRACK 06 AUDIO TITLE "Ne plus y croire" PERFORMER "Klub des Loosers" REM COMPOSER "" INDEX 01 00:00:00 FILE "07. Create New Account. Xavier Boyer. Song Statistics Stats; Tour Statistics Stats; Other Statistics; All Setlists. Shop for Vinyl, CDs and more from Klub des Loosers at the Discogs Marketplace. Page Transparency See More. Klub des Loosers ‎– Le Parapluie / Les Choses De L'Amour / Souvenir Label: Arcade Mode ‎– AM704 Format: Vinyl, 7", Limited Edition, Blue. Not Now. Albums include Vive la vie, La fin de … Et pour ceux qui aiment bien savoir où va leur argent, sachez que tous les bénéfices sont reversés à l'association "Les poches de Fuzati". MP3 FLAC WAV View more. 6. Nora (Naked) - Orouni 10. Musician/Band. Streaming plans Download store Magazine. Klub des loosers Baise les gens - EP. 2018 (6 ) 2016 (1) 2015 (3) 2012 (7) 2007 (1) 2005 (1) Tours. Klub des Loosers - Les statues (titre inédit pour une compilation) by Greatbaboon in france. Show all tours. Le chat et autres histoires Tour 2018 (2) Songs; Albums; Avg Setlist; Covers; With; Concert Map; Songs played total. Deuxième extrait tiré de l'album "la fin de l'espèce" (Les Disques du Manoir) sortie le 05 Mars 2012. klubdesloosers.com album… Klub Des Loosers - Encore Merci on Vimeo Join About See All. Klub Des Loosers, Category: Artist, Albums: VANITÉ, Le chat et autres histoires, Last Days, La fin de l'espèce, Spring Tales, Singles: Qui perd gagne, Comme eux, Battre, Champion, Les statues (Extrait de la compilation "Le Motel, ma maison"), Top Tracks: Volutes, Destin d'hymen, Vieille branche, Champion, Finisher, Biography: Klub des Loosers actually was Fuzati's brainchild. Baise les gens - EP | Klub des Loosers. REC-09CD; CD). Formé en 2000, le groupe se compose initialement du leader et fondateur Fuzati, accompagné de DJ Orgasmic. 9. Les statues. Les statues - Klub des Loosers 07. Toute la … 32,594 people like this. Klub des Loosers Le Klub de 7 Orgasmic DJ Detect: Fuzati (born in 1978) is a French rapper originating from Versailles. As you have to be busy every night after 18 pm, know that Vanité magazine is now available alone on the shop. Find out at which radio station you can hear Klub Des Loosers - Les statues Klub Des Loosers - Les statues - Listen on Online Radio Box This site uses cookies . See all genres ON SALE NOW. 3:02 PREVIEW Cher ami. Listen to Les statues (Extrait de la compilation "Le Motel, ma maison"), a song by Klub des loosers on TIDAL Genres: French Hip Hop, Abstract Hip Hop, Instrumental Hip Hop. Genres: French Hip Hop, Boom Bap, Abstract Hip Hop, Experimental Hip Hop. Dig - Thomas Subiranin 13. Community See All. Cher ami - The Rodeo 11. 2017-10-02T23:26:12Z Comment by Charles Mahé O'Chinal. Show all. See what other people are saying about Les statues (Extrait de la compilation "Le Motel, ma maison") by Klub des Loosers and discuss your favourite songs with other fans on Last.fm. Career. or. Tremblor of Void - Of Montreal 08. See more of Klub des Loosers on Facebook. L'épice - Simple As Pop 17. Klub des Loosers discography and songs: Music profile for Klub des Loosers. Désormais, Fuzati représente seul le Klub des Loosers. 10. Genre: BEATS / HIP HOP. TITLE "Avec les larmes" PERFORMER "Klub des Loosers" REM COMPOSER "" INDEX 01 00:00:00 FILE "05. The answer : Michel Houellebecq - Les pics de pollution. 3:50 PREVIEW Don't Want to Be a Hippie … le klub des loosers baise les gens source - 46894 68 - France - 2002 Sell. Objet trouvé - Ben Kerber 14. Posted on December 31, 2015 by The Jukebox Rebel. 4:22 PREVIEW Nature Girl. Sell . See actions … Log In. Stream ad-free or purchase CD's and MP3s now on Amazon.com. Facebook is showing information to help you better understand the purpose of a Page. Nature Girl - Xavier Boyer 09. Thanks to Leklubdesloosers. Don't Want to Be a Hippie but I Wanna Get Scones - School Daze 12. Klub des Loosers from France made the good song Les statues available to us as a part of the album Le Motel, ma maison. innofader 1 point 2 points 3 points 2 years ago . Klub des Loosers – Baise Les Gens. Find album reviews, stream songs, credits and award information for Vive la Vie - Klub des Loosers on AllMusic - 2004 Deuxième extrait tiré de l'album "la fin de l'espèce" (Les Disques du Manoir) sortie le 05 Mars 2012. klubdesloosers.com single… Klub des Loosers - Volutes on Vimeo Join Après le crash - Iñigo Montoya / Grand Soleil 16. Back. Categories: All. Baise les gens - EP | Klub des Loosers to stream in hi-fi, or to download in True CD Quality on Qobuz.com. 7. 8. Klub des Loosers. Klub des Loosers La Laiterie, Strasbourg - Mar 24, 2018 Mar 24 2018 Klub des Loosers Le Jardin du Michel 2018 - Jun 2, 2018 Jun 02 2018 Last updated: 7 Apr 2021, 00:24 Etc/UTC Average rating for Klub Des Loosers songs is 7.61/10 [332 votes]. Stream Fuzati (Klub des Loosers) • DJ Set • 17.06.2013 by Le Mellotron from desktop or your mobile device. Fuzati studied communications law and worked as a journalist in Clark magazine before engaging in musical career as an MC and co-founder. Contact Klub des Loosers on Messenger.

Avis Hôtel El Mouradi El Menzah Hammamet, Best Restaurants In Tunisia, Lulu Vroumette Saison 2, C'est Très Class, Lac De La Vanoise, Restaurant Indien Martinique, Numero De Téléphone Eurostar France, Www Sarzeau Fr Les Grands Dossiers,